<?xml version="1.0" standalone="no"?>
<!DOCTYPE svg PUBLIC "-//W3C//DTD SVG 1.1//EN" "http://www.w3.org/Graphics/SVG/1.1/DTD/svg11.dtd" >
<svg xmlns="http://www.w3.org/2000/svg">
<metadata>
This is a custom SVG webfont generated by Font Squirrel.
Copyright   :  1987 1991 1994 1998 2002 Adobe Systems Incorporated All rights reserved  1981 1998 2002 Heidelberger Druckmaschinen AG All rights reserved
Designer    : Adrian Frutiger
Foundry URL : httpwwwadobecomtype
</metadata>
<defs>
<font id="UniversLTStd57Condensed" horiz-adv-x="1024" >
<font-face units-per-em="2048" ascent="1483" descent="-565" />
<missing-glyph horiz-adv-x="454" />
<glyph unicode=" "  horiz-adv-x="454" />
<glyph unicode="&#x09;" horiz-adv-x="454" />
<glyph unicode="&#xa0;" horiz-adv-x="454" />
<glyph unicode="!" horiz-adv-x="681" d="M229 1479h224l-41 -1137h-146zM246 0v213h192v-213h-192z" />
<glyph unicode="&#x22;" horiz-adv-x="512" d="M72 1055v424h123v-424h-123zM317 1055v424h123v-424h-123z" />
<glyph unicode="#" horiz-adv-x="909" d="M-6 479l35 115h202l72 233h-207l35 115h205l149 479h105l-150 -479h168l146 479h106l-147 -479h209l-35 -115h-209l-72 -233h211l-35 -115h-211l-147 -479h-105l148 479h-164l-151 -479h-105l150 479h-203zM338 594h164l71 233h-165z" />
<glyph unicode="$" horiz-adv-x="909" d="M7 395.5q1 22.5 3 36.5h193q0 -123 50 -207t157 -92v516q-86 43 -134.5 71t-111 79t-91 114.5t-28.5 145.5q0 168 104.5 276.5t260.5 108.5v121h88v-121q201 0 301 -107.5t100 -310.5h-207q2 119 -42 183.5t-152 70.5v-473q186 -90 247 -135q156 -119 156 -310 q0 -195 -124 -294t-279 -99v-121h-88v121q-90 0 -160 24.5t-112 61.5t-70.5 86t-40 94.5t-16.5 91.5t-4 68.5zM238 1079q0 -137 172 -227v428q-78 -10 -125 -64.5t-47 -136.5zM498 133q94 10 152.5 69.5t58.5 153.5q0 82 -54.5 137.5t-156.5 110.5v-471z" />
<glyph unicode="%" horiz-adv-x="1593" d="M143 1114q0 70 3.5 117t17.5 104.5t41.5 92t78 58t122 23.5t122 -23.5t78 -58t42 -92t17.5 -104.5t3 -117q0 -72 -3 -118t-17.5 -102t-42 -89t-78 -55.5t-122 -22.5t-122 22.5t-78 55.5t-41.5 89t-17.5 102t-3.5 118zM287 1118q0 -72 1 -102.5t6 -73.5t18.5 -59.5 t36 -28.5t57.5 -12q82 0 100 57t18 219q0 72 -1 102.5t-6 73.5t-18.5 59.5t-36 29t-56.5 12.5q-82 0 -100.5 -57.5t-18.5 -219.5zM379 -74l698 1626h133l-702 -1626h-129zM924 356q0 70 3 117t17 104.5t42 92.5t78 58.5t121.5 23.5t122 -23.5t78 -58.5t42 -92.5t17.5 -104.5 t3 -117q0 -72 -3 -117.5t-17.5 -102t-42 -89.5t-78 -55.5t-122 -22.5t-121.5 22.5t-78 55.5t-42 89.5t-17 102t-3 117.5zM1067 360q0 -72 1 -102.5t6 -73.5t18.5 -59t36 -28.5t57.5 -12.5q82 0 100.5 57.5t18.5 218.5q0 72 -1 103t-6.5 74t-18.5 59t-35.5 28.5t-57.5 12.5 q-82 0 -100.5 -57.5t-18.5 -219.5z" />
<glyph unicode="&#x26;" horiz-adv-x="1366" d="M111 393q0 88 21.5 154.5t74.5 121t98 87t133 88.5q-195 223 -194.5 372.5t105 221t259.5 71.5q152 0 249 -74.5t97 -224.5q0 -184 -247 -393l288 -366q29 96 29 419h168q0 -399 -90 -553l237 -317h-213l-118 152q-82 -100 -179.5 -141.5t-232.5 -41.5q-211 0 -348 109.5 t-137 314.5zM303 397q0 -119 85 -194.5t218 -75.5q199 0 301 147l-364 461q-61 -43 -94 -68.5t-72 -67.5t-56.5 -91.5t-17.5 -110.5zM436 1200q0 -45 25.5 -90t75 -101.5t61.5 -74.5q164 145 164 266q0 78 -43 122t-119 44q-72 0 -118 -46t-46 -120z" />
<glyph unicode="'" horiz-adv-x="512" d="M195 1055v424h122v-424h-122z" />
<glyph unicode="(" horiz-adv-x="569" d="M102 643q0 90 10.5 179t38 197.5t43 165t59.5 192.5t54 171h125q-137 -541 -137 -913q0 -330 129 -877h-119q-12 37 -54 167t-58.5 188.5t-43 163t-37 191.5t-10.5 175z" />
<glyph unicode=")" horiz-adv-x="569" d="M137 1548h125q10 -35 54 -171t59.5 -192.5t43 -165t38 -197.5t10.5 -179q0 -88 -10.5 -175t-37 -191.5t-43 -163t-58.5 -188.5t-54 -167h-119q129 547 129 877q0 372 -137 913z" />
<glyph unicode="*" horiz-adv-x="909" d="M66 1069v135l319 -24l-184 260l121 69l133 -290l133 290l121 -69l-185 -260l320 24v-135l-320 31l187 -266l-119 -66l-137 295l-138 -295l-118 66l186 266z" />
<glyph unicode="+" d="M88 455v127h361v452h126v-452h361v-127h-361v-455h-126v455h-361z" />
<glyph unicode="," horiz-adv-x="454" d="M70 -260l106 473h211l-186 -473h-131z" />
<glyph unicode="-" horiz-adv-x="681" d="M115 479v158h450v-158h-450z" />
<glyph unicode="." horiz-adv-x="454" d="M131 0v213h193v-213h-193z" />
<glyph unicode="/" horiz-adv-x="569" d="M-49 -197l481 1676h137l-481 -1676h-137z" />
<glyph unicode="0" horiz-adv-x="909" d="M72 575v123v7q0 334 28 456q57 240 267 277q41 6 88 6q63 0 114.5 -13.5t88 -33t66.5 -58.5t48.5 -70.5t31.5 -92t19 -99.5t10.5 -113.5t4.5 -116.5v-124v-18q0 -336 -35 -465q-66 -250 -305 -269q-20 -2 -43 -2q-63 0 -114.5 14.5t-88.5 34t-66.5 60.5t-48 73.5t-32 93 t-19.5 100.5t-10 114.5t-4 115.5zM260 536q0 -30 2 -85.5t7 -86t14.5 -74.5t24 -67.5t33.5 -48t48 -36t66 -11.5t65.5 12.5t48 34t34.5 51t23.5 65.5t13.5 76t6 83t3 88t0 88v43v138q0 48 -3 118.5t-8 107.5t-14.5 87t-23.5 74t-33.5 49.5t-48.5 34.5t-63.5 9t-63.5 -9 t-48 -34.5t-33.5 -49.5t-24 -74t-14.5 -87t-8 -107.5t-3 -118.5v-138v-43v-89z" />
<glyph unicode="1" horiz-adv-x="909" d="M190 1071v180q70 31 240 170h162v-1421h-189v1214z" />
<glyph unicode="2" horiz-adv-x="909" d="M88 0v164q78 111 181.5 251t145.5 198.5t96 139.5t71.5 126t31 101t13.5 118q0 88 -44 138t-132 50q-170 0 -166 -231h-193q-12 180 77 284.5t267 104.5q193 0 286 -91t93 -282q0 -94 -16.5 -165.5t-67.5 -156.5t-95 -143.5t-155.5 -197t-191.5 -244.5h563v-164h-764z " />
<glyph unicode="3" horiz-adv-x="909" d="M51 375v16h189q2 -127 39.5 -195.5t154.5 -68.5q217 0 217 256q0 166 -66.5 222.5t-238.5 56.5v165q133 -12 212 46.5t79 189.5q0 102 -48 162.5t-149 60.5q-182 0 -178 -231h-188q-10 186 81 287.5t285 101.5q184 0 284.5 -93.5t100.5 -275.5q0 -76 -23.5 -135t-50 -91 t-75.5 -56.5t-68.5 -30.5t-62.5 -17v-4q162 -23 228.5 -109.5t66.5 -252.5q0 -410 -422 -410q-375 0 -367 406z" />
<glyph unicode="4" horiz-adv-x="909" d="M51 346v164l402 911h249v-911h168v-164h-168v-346h-176v346h-475zM215 510h311v739h-4z" />
<glyph unicode="5" horiz-adv-x="909" d="M100 322h189q0 -92 40 -154t128 -62q63 0 104 28t58.5 79t22.5 96t5 111q0 76 -2 120t-11 98t-28.5 82t-54.5 48t-86 20q-74 0 -118 -45t-56 -120h-170v798h663v-164h-475v-413l4 -4q23 45 87.5 75.5t138.5 30.5q152 0 224.5 -116.5t72.5 -362.5q0 -82 -5.5 -141.5 t-28 -131t-62.5 -116.5t-113.5 -77t-175.5 -32q-203 0 -277 93.5t-74 259.5z" />
<glyph unicode="6" horiz-adv-x="909" d="M74 575v123v7q0 334 28 456q57 240 267 277q41 6 88 6q162 0 260 -93.5t92 -252.5h-188q0 82 -44.5 145.5t-121.5 63.5q-113 0 -153 -112t-40 -402h4q76 133 232 133q338 0 338 -477q0 -209 -92.5 -344.5t-286.5 -135.5q-63 0 -114.5 14.5t-88.5 34t-66.5 60.5t-48 73.5 t-32 93t-19.5 100.5t-10 114.5t-4 115.5zM266 461q0 -334 201 -334q104 0 142 94t38 260q0 287 -192 287q-189 0 -189 -307z" />
<glyph unicode="7" horiz-adv-x="909" d="M61 1257v164h736v-164l-379 -1257h-213l397 1257h-541z" />
<glyph unicode="8" horiz-adv-x="909" d="M76 383q0 342 262 369v2q-121 25 -184.5 116t-63.5 217q0 166 98.5 261.5t266.5 95.5t266 -95.5t98 -261.5q0 -127 -63.5 -218t-184.5 -115v-2q262 -27 263 -369q0 -195 -97.5 -304.5t-282 -109.5t-281.5 109.5t-97 304.5zM264 381q0 -104 46 -179t144.5 -75t144.5 74.5 t46 179.5q0 45 -3 80t-14.5 77t-30.5 69.5t-55 46t-87.5 18.5t-87 -18.5t-55 -46t-31 -69.5t-14.5 -77t-3 -80zM279 1094q0 -100 40.5 -179t135 -79t135.5 78.5t41 179.5q0 88 -45 150.5t-131 62.5t-131 -62.5t-45 -150.5z" />
<glyph unicode="9" horiz-adv-x="909" d="M74 1008q0 223 109.5 329.5t269.5 106.5q63 0 114 -13.5t88 -33t67 -58.5t48 -70.5t31.5 -92t19.5 -99.5t10.5 -113.5t4.5 -116.5v-124v-18q0 -336 -35 -465q-66 -250 -305 -269q-20 -2 -43 -2q-160 0 -256.5 101.5t-94.5 269.5h189q0 -90 39 -151.5t123 -61.5 q53 0 90 25.5t57.5 65.5t30.5 119t13 153.5t3 201.5h-4q-61 -133 -244 -133q-51 0 -100 16.5t-103.5 60.5t-88 139.5t-33.5 232.5zM262 1012q0 -295 190.5 -295t190.5 295t-190.5 295t-190.5 -295z" />
<glyph unicode=":" horiz-adv-x="454" d="M131 0v213h193v-213h-193zM131 821v213h193v-213h-193z" />
<glyph unicode=";" horiz-adv-x="454" d="M70 -260l106 473h211l-186 -473h-131zM131 821v213h193v-213h-193z" />
<glyph unicode="&#x3c;" d="M86 453v131l854 471v-150l-694 -387l694 -395v-150z" />
<glyph unicode="=" d="M88 256v127h848v-127h-848zM88 659v127h848v-127h-848z" />
<glyph unicode="&#x3e;" d="M84 -27v150l694 395l-694 387v150l854 -471v-131z" />
<glyph unicode="?" horiz-adv-x="909" d="M115 1087q-16 422 356 422q156 0 245 -92t89 -250q0 -115 -43 -215t-93.5 -155.5t-93.5 -119t-43 -112.5v-190h-167v233q0 59 38.5 127t85 122t85 139t38.5 175q0 78 -38.5 139.5t-114.5 61.5q-158 0 -152 -285h-192zM352 0v213h193v-213h-193z" />
<glyph unicode="@" horiz-adv-x="1613" d="M49 741q0 319 226.5 543.5t545.5 224.5q195 0 342.5 -59t221 -137t117.5 -177.5t53.5 -156.5t9.5 -98q0 -164 -53.5 -288t-133.5 -187.5t-156.5 -94t-142.5 -30.5q-59 0 -110 27.5t-68 80.5q-100 -104 -246 -104q-129 0 -207.5 90t-78.5 219q0 141 62.5 283.5t183 243 t266.5 100.5q76 0 139 -36t94 -102l29 97h141l-211 -625q-27 -74 -26 -106q0 -53 61 -54q113 0 227.5 132t114.5 354q0 47 -10 101t-49 132t-102.5 136.5t-185.5 101.5t-282 43q-272 0 -464.5 -191.5t-192.5 -464t191.5 -464t465.5 -191.5q188 0 339 69.5t243 202.5h123 q-98 -180 -286.5 -283.5t-418.5 -103.5q-319 0 -545.5 225t-226.5 547zM526 604q0 -80 43 -138t117 -58q84 0 153.5 70.5t108.5 167.5t59.5 179t20.5 123q0 61 -41 105.5t-104 44.5q-150 0 -253.5 -166t-103.5 -328z" />
<glyph unicode="A" horiz-adv-x="1251" d="M31 0l469 1479h239l482 -1479h-211l-107 352h-571l-111 -352h-190zM379 516h473l-238 789h-4z" />
<glyph unicode="B" horiz-adv-x="1251" d="M184 0v1479h482q139 0 209.5 -39t119.5 -113q59 -92 60 -197q0 -145 -58.5 -232t-195.5 -118v-10q303 -35 303 -354q0 -416 -445 -416h-475zM373 164h266q137 0 204.5 77.5t67.5 174.5q0 86 -24.5 142t-73.5 85t-104.5 39t-135.5 10h-200v-528zM373 856h274 q109 2 164 63.5t55 172.5q0 98 -57 160.5t-170 62.5h-266v-459z" />
<glyph unicode="C" horiz-adv-x="1138" d="M150 555v418q0 297 120.5 416.5t354.5 119.5q215 0 308 -109q81 -95 81 -272q0 -27 -2 -57h-195v25q0 138 -43 190q-27 31 -77 47.5t-89 16.5q-70 0 -124 -26t-74.5 -49.5t-24.5 -39.5q0 -2 -5 -11.5t-9 -19.5t-9.5 -33.5t-9.5 -53.5t-7 -80t-3 -109v-396 q0 -131 19.5 -216t59.5 -123.5t82 -52t103 -13.5q31 0 61.5 9t73.5 36t71 95.5t28 168.5h194v-19q0 -85 -16 -154q-18 -77 -45 -124t-70 -81.5t-77.5 -51t-83 -26t-71 -10.5t-55.5 -1q-51 0 -84.5 2t-87 14.5t-90.5 34t-79 64.5t-66.5 103.5t-41.5 154.5t-17 213z" />
<glyph unicode="D" horiz-adv-x="1251" d="M170 0v1479h455q293 0 397 -226q66 -137 65 -467q0 -453 -90 -596q-121 -190 -487 -190h-340zM358 164h179q201 0 279.5 94t78.5 348v299q0 221 -69.5 315.5t-219.5 94.5h-248v-1151z" />
<glyph unicode="E" d="M166 0v1479h762v-164h-574v-475h533v-164h-533v-512h586v-164h-774z" />
<glyph unicode="F" horiz-adv-x="909" d="M152 0v1479h733v-164h-545v-475h516v-164h-516v-676h-188z" />
<glyph unicode="G" horiz-adv-x="1251" d="M147 541v485q0 227 118 355t347 128q244 0 356 -99q104 -93 104 -296q0 -15 -1 -31h-197q0 135 -61 202t-201 67q-27 0 -52 -3t-68 -20.5t-74 -49.5t-54.5 -95.5t-23.5 -151.5v-500q0 -231 65.5 -318t206.5 -87q176 0 265 66v442h-273v164h461v-719q-205 -111 -453 -111 q-240 0 -352.5 134.5t-112.5 437.5z" />
<glyph unicode="H" horiz-adv-x="1251" d="M178 0v1479h189v-639h518v639h188v-1479h-188v676h-518v-676h-189z" />
<glyph unicode="I" horiz-adv-x="569" d="M190 0v1479h189v-1479h-189z" />
<glyph unicode="J" d="M61 459h197q0 -8 1 -51t2 -57.5t5 -53.5t11.5 -55.5t20.5 -44t31.5 -39t46 -21.5t62.5 -10q57 0 98.5 20.5t64 50t33.5 81t14 93.5t3 107v1000h189v-1112q0 -41 -3 -74t-24.5 -98.5t-60.5 -109.5t-122 -80t-198 -36q-82 0 -173 34t-138 112q-60 98 -60 344z" />
<glyph unicode="K" horiz-adv-x="1138" d="M166 0v1479h188v-650h6l517 650h213l-537 -668l567 -811h-241l-519 772h-6v-772h-188z" />
<glyph unicode="L" horiz-adv-x="909" d="M166 0v1479h188v-1315h543v-164h-731z" />
<glyph unicode="M" horiz-adv-x="1705" d="M168 0v1479h305l373 -1241h4l377 1241h311v-1479h-188v1315h-4l-414 -1315h-178l-406 1315h-4v-1315h-176z" />
<glyph unicode="N" horiz-adv-x="1366" d="M176 0v1479h266l576 -1266h4v1266h168v-1479h-258l-584 1282h-4v-1282h-168z" />
<glyph unicode="O" horiz-adv-x="1251" d="M160 541v485q0 227 117.5 355t347 128t347.5 -128t118 -355v-485q0 -303 -113 -437.5t-352.5 -134.5t-352 134.5t-112.5 437.5zM352 532q0 -231 65.5 -318t207 -87t207 87t65.5 318v500q0 88 -23.5 151.5t-54.5 95.5t-74 49.5t-68.5 20.5t-52 3t-52 -3t-68.5 -20.5 t-74 -49.5t-54.5 -95.5t-23.5 -151.5v-500z" />
<glyph unicode="P" horiz-adv-x="1138" d="M190 0v1479h439q412 0 411 -422q0 -119 -42 -204t-109.5 -126t-132 -58.5t-129.5 -17.5h-248v-651h-189zM379 815h207q39 0 75.5 8t83 31t75 77t28.5 136q0 78 -25.5 132t-64.5 76.5t-67.5 31t-51.5 8.5h-260v-500z" />
<glyph unicode="Q" horiz-adv-x="1251" d="M147 541v485q0 227 118 355t347.5 128t347 -128t117.5 -355v-485q0 -102 -35.5 -241.5t-93.5 -164.5l4 -4q106 33 129 33h148v-164h-615q-55 0 -90 2t-89 13.5t-90 31t-77 59t-64.5 96t-40 142.5t-16.5 197zM340 532q0 -197 58.5 -288.5t216 -91.5t214 91t56.5 289v500 q0 88 -23.5 151.5t-54.5 95.5t-74 49.5t-68.5 20.5t-52 3t-52 -3t-68.5 -20.5t-74 -49.5t-54.5 -95.5t-23.5 -151.5v-500z" />
<glyph unicode="R" horiz-adv-x="1138" d="M162 0v1479h510q182 0 268 -106.5t86 -262.5q0 -133 -70.5 -224t-199.5 -114v-4q133 -20 183 -93t58 -288q2 -68 17.5 -197t34.5 -190h-197q-25 47 -34 116.5t-14 194.5t-9 181q-14 188 -224 188h-221v-680h-188zM350 844h283q96 0 148.5 70.5t52.5 175.5 q0 92 -49.5 158.5t-149.5 66.5h-285v-471z" />
<glyph unicode="S" horiz-adv-x="1138" d="M125 440h186v-43q0 -139 72 -201.5t176 -62.5q264 0 264 240q0 90 -68.5 157.5t-165.5 116.5t-194.5 102.5t-166 144.5t-68.5 214q0 190 120.5 295.5t313.5 105.5q410 0 410 -397v-35h-197q2 131 -49 200t-178 69q-96 0 -162 -53.5t-66 -164.5q0 -88 68.5 -155.5 t166 -115.5t195 -102.5t166 -149.5t68.5 -224q0 -217 -128 -314.5t-331 -97.5h-13q-117 0 -200 36q-88 38 -130 86t-63.5 123t-24.5 120q-2 27 -2 60q0 21 1 46z" />
<glyph unicode="T" d="M29 1315v164h966v-164h-389v-1315h-188v1315h-389z" />
<glyph unicode="U" horiz-adv-x="1251" d="M160 541v938h188v-947q0 -231 66.5 -318t210 -87t210 87t66.5 318v947h189v-938q0 -303 -113 -437.5t-352.5 -134.5t-352 134.5t-112.5 437.5z" />
<glyph unicode="V" horiz-adv-x="1138" d="M27 1479h204l338 -1301h4l347 1301h192l-432 -1479h-225z" />
<glyph unicode="W" horiz-adv-x="1820" d="M12 1479h201l279 -1282h4l297 1282h243l269 -1282h4l301 1282h196l-391 -1479h-229l-281 1282h-4l-299 -1282h-229z" />
<glyph unicode="X" horiz-adv-x="1138" d="M12 0l426 766l-403 713h217l303 -574l307 574h207l-397 -713l442 -766h-227l-344 633l-326 -633h-205z" />
<glyph unicode="Y" d="M16 1479h211l289 -715l299 715h191l-404 -916v-563h-188v563z" />
<glyph unicode="Z" d="M49 0v213l717 1098v4h-692v164h882v-189l-733 -1126h750v-164h-924z" />
<glyph unicode="[" horiz-adv-x="569" d="M143 -242v1790h340v-114h-172v-1561h178v-115h-346z" />
<glyph unicode="\" horiz-adv-x="569" d="M-2 1479h137l434 -1510h-137z" />
<glyph unicode="]" horiz-adv-x="569" d="M80 -127h178v1561h-172v114h340v-1790h-346v115z" />
<glyph unicode="^" d="M135 567l309 854h123l320 -854h-154l-229 652h-4l-226 -652h-139z" />
<glyph unicode="_" d="M0 -154h1024v-102h-1024v102z" />
<glyph unicode="`" horiz-adv-x="569" d="M41 1479h223l182 -289h-137z" />
<glyph unicode="a" d="M133 319q0 90 36 154t86 96.5t130 50t142 20.5q37 2 84 2q31 0 65 -1q0 15 0.5 45t0.5 45q0 36 -8 70q-9 37 -26.5 65.5t-53.5 45t-87 16.5q-84 0 -127 -51q-36 -43 -36 -108q0 -12 1 -26h-182q6 168 93 240t257 72q186 0 261 -83t75 -229v-497q0 -113 20 -246h-184v150 h-4q-74 -170 -260 -170q-156 0 -219.5 88.5t-63.5 250.5zM301 307q0 -82 41 -136t121 -54q215 0 214 336q0 29 -1 61q-182 -2 -242 -20q-133 -42 -133 -187z" />
<glyph unicode="b" d="M162 0v1479h168v-549h6q88 125 227 125q70 0 124 -18.5t90 -45t60.5 -75t38 -89.5t20.5 -105.5t8 -108.5t1 -113q0 -164 -27.5 -272.5t-78.5 -160t-103.5 -69.5t-124.5 -18q-152 0 -237 143h-4v-123h-168zM330 559q0 -209 16 -280q39 -162 172 -162q43 0 78 14t56.5 33.5 t37 54.5t23.5 62.5t11 73.5t4 72t1 71q0 227 -39 323.5t-166 96.5q-45 0 -78.5 -16.5t-54 -47.5t-34 -63.5t-18.5 -78.5t-7 -78t-2 -75z" />
<glyph unicode="c" d="M152 502q0 104 6 175t29.5 148.5t64.5 123.5t114.5 76t178.5 30q158 0 241 -90q77 -82 77 -233q0 -15 -1 -30h-174v11q0 107 -41 154q-43 50 -102 51q-106 0 -161.5 -73t-55.5 -272q0 -258 45 -357t172 -99q49 0 101 53q48 49 49 157q0 8 -1 17h176q0 -6 1 -12 q0 -95 -31 -166q-33 -76 -87.5 -114t-106.5 -55t-101 -17q-92 0 -155.5 18t-122 70.5t-87 160t-28.5 273.5z" />
<glyph unicode="d" d="M119 500q0 70 1 113.5t8 108t20.5 105.5t38 89.5t60.5 75t90 45t124 18.5q139 0 227 -125h6v549h168v-1479h-168v123h-4q-86 -143 -237 -143q-72 0 -124.5 18t-103.5 69.5t-78.5 160t-27.5 272.5zM295 498q0 -45 1 -71t4 -72t11 -73.5t23.5 -62.5t37 -54.5t56.5 -33.5 t78 -14q45 0 78.5 16.5t54 53t32 70.5t16.5 96.5t6 99t1 106.5q0 43 -2 75t-7 78t-18.5 78.5t-34 63.5t-54 47.5t-78.5 16.5q-127 0 -166 -96.5t-39 -323.5z" />
<glyph unicode="e" d="M131 502q0 104 6 175t29.5 148.5t64.5 123.5t115 76t178 30q213 0 291 -118t78 -386v-88h-582q0 -203 50.5 -274.5t158.5 -71.5q82 0 129 56t51 140h185q-2 -168 -97.5 -250.5t-263.5 -82.5q-92 0 -155.5 18t-122 70.5t-87 160t-28.5 273.5zM311 590h404 q0 209 -50.5 273.5t-156.5 64.5q-92 0 -143.5 -70.5t-53.5 -267.5z" />
<glyph unicode="f" horiz-adv-x="569" d="M18 907v127h160v201q0 250 297 250q43 0 80 -6v-121q-21 1 -39 1q-89 0 -126 -33q-44 -40 -44 -116v-176h209v-127h-209v-907h-168v907h-160z" />
<glyph unicode="g" d="M125 549q0 135 26.5 234.5t62.5 149.5t85 79.5t82 36t68 6.5q172 0 241 -148h4v127h168v-1138q0 -164 -97 -225.5t-284 -61.5q-139 0 -231 70q-83 64 -83 180q0 13 1 26h188q2 -72 45 -110.5t113 -38.5q86 0 133 48t47 130v215h-6q-31 -59 -94.5 -94t-132.5 -35 q-102 0 -171 41t-103.5 120t-48 171t-13.5 217zM301 549q0 -236 49 -323t152 -87q49 0 85 16.5t56.5 53.5t32.5 65.5t16 87t5 81t1 79.5q0 199 -28 275q-45 119 -172 118q-55 0 -94 -26.5t-58.5 -61t-30 -91t-12.5 -94.5t-2 -93z" />
<glyph unicode="h" d="M145 0v1479h168v-578h9q49 88 112.5 121t167.5 33q137 0 206 -76t69 -246v-733h-168v700q0 217 -185 218q-117 0 -164 -82t-47 -228v-608h-168z" />
<glyph unicode="i" horiz-adv-x="454" d="M133 1298v181h189v-181h-189zM143 0v1034h168v-1034h-168z" />
<glyph unicode="j" horiz-adv-x="454" d="M18 -248q63 0 94 18.5t31 77.5v1186h168v-1177q0 -133 -59 -190.5t-234 -57.5v143zM133 1298v181h189v-181h-189z" />
<glyph unicode="k" horiz-adv-x="909" d="M147 0v1479h168v-891h4l316 446h205l-344 -444l405 -590h-213l-369 580h-4v-580h-168z" />
<glyph unicode="l" horiz-adv-x="454" d="M143 0v1479h168v-1479h-168z" />
<glyph unicode="m" horiz-adv-x="1478" d="M129 1034h178v-129h4q66 150 258 150q78 0 146.5 -34t95.5 -99q70 133 246 133q283 0 282 -269v-786h-168v717q0 201 -163 201q-51 0 -73 -6.5t-54 -32.5q-57 -47 -58 -183v-696h-168v717q0 201 -163 201q-39 0 -83 -20.5t-63 -49.5q-39 -66 -39 -152v-696h-168v819 q0 96 -10 215z" />
<glyph unicode="n" d="M137 1034h178v-133h9q49 86 111.5 120t164.5 34q156 0 216.5 -85t60.5 -253v-717h-168v717q0 201 -183 201q-211 0 -211 -306v-612h-168v819q0 96 -10 215z" />
<glyph unicode="o" d="M119 502q0 104 6 175t29.5 148.5t64.5 123.5t115 76t178 30t178 -30t115 -76t64.5 -123.5t29.5 -148.5t6 -175q0 -166 -28.5 -273.5t-87 -160t-122 -70.5t-155.5 -18t-155.5 18t-122 70.5t-87 160t-28.5 273.5zM295 573q0 -258 45 -357t172 -99t172 99t45 357 q0 199 -55.5 272t-161.5 73t-161.5 -73t-55.5 -272z" />
<glyph unicode="p" d="M162 -391v1425h168v-123h4q86 143 237 144q72 0 124.5 -18.5t103.5 -70t78.5 -160t27.5 -271.5q0 -70 -1 -114t-8 -108.5t-20.5 -105.5t-38 -89t-60.5 -75t-90 -45t-124 -18q-139 0 -227 124h-6v-495h-168zM329 572q0 -11 -1 -22q0 -21 2 -40v-37q0 -68 5 -116 t21.5 -110.5t59.5 -96t108 -33.5q127 0 166 95t39 323q0 53 -1 83.5t-6 83t-19.5 84t-36 65.5t-59.5 50.5t-89 16.5q-35 0 -63.5 -11.5t-47 -30t-34 -45t-22.5 -57.5t-13 -64.5t-7 -68.5t-2 -69z" />
<glyph unicode="q" d="M119 535q0 164 27.5 272t78.5 159.5t103.5 70t124.5 18.5q152 0 237 -144h4v123h168v-1425h-168v495h-6q-88 -125 -227 -124q-70 0 -124 18t-90 45t-60.5 75t-38 89t-20.5 105.5t-8 108.5t-1 114zM295 535q0 -227 39 -322.5t166 -95.5q66 0 108.5 33.5t59 96t21.5 111 t5 115.5q0 207 -16 279q-37 162 -172 161q-51 0 -89 -15t-59.5 -49t-36 -64.5t-19.5 -84t-6 -83t-1 -82.5z" />
<glyph unicode="r" horiz-adv-x="681" d="M154 0v1034h168v-155h4q49 111 116.5 143.5t202.5 32.5v-174q-6 0 -22.5 2t-22.5 4q-29 4 -45 4q-233 0 -233 -281v-610h-168z" />
<glyph unicode="s" horiz-adv-x="909" d="M96 315h191q0 -199 172 -198q80 0 129 41t49 116q0 49 -53.5 91.5t-129 76t-151.5 73.5t-129 105.5t-53 151.5q0 47 15.5 91t52 90t111.5 74t177 28q150 0 244 -74q85 -66 85 -191q0 -14 -1 -28h-187q4 166 -161 166q-70 0 -115 -37t-45 -103q0 -49 53 -89t129 -73.5 t152 -72.5t129 -104.5t53 -153.5q0 -162 -98.5 -238.5t-261.5 -76.5q-174 0 -268 81q-89 78 -89 240v14z" />
<glyph unicode="t" horiz-adv-x="569" d="M-4 907v127h170v199l168 76v-275h225v-127h-225v-633q0 -35 3 -53t15.5 -44.5t46 -39t88.5 -12.5q2 0 76 8v-129q-18 -2 -76.5 -9t-89.5 -7q-231 0 -231 184v735h-170z" />
<glyph unicode="u" d="M154 246v788h168v-717q0 -96 45 -152t131 -56q78 0 140 60t62 179v686h168v-819q0 -96 11 -215h-179v125h-6q-86 -145 -262 -145q-278 0 -278 266z" />
<glyph unicode="v" horiz-adv-x="909" d="M29 1034h188l232 -876h4l249 876h177l-324 -1034h-219z" />
<glyph unicode="w" horiz-adv-x="1478" d="M18 1034h187l186 -891h4l230 891h237l211 -891h4l205 891h178l-276 -1034h-226l-221 881h-4l-231 -881h-226z" />
<glyph unicode="x" horiz-adv-x="909" d="M12 0l322 541l-295 493h215l197 -370l208 370h203l-309 -493l342 -541h-221l-240 424l-223 -424h-199z" />
<glyph unicode="y" horiz-adv-x="909" d="M16 1034h195l248 -841h4l248 841h182l-469 -1425h-174l117 391z" />
<glyph unicode="z" horiz-adv-x="796" d="M72 0v158l450 735v4h-428v137h617v-153l-457 -744h471v-137h-653z" />
<glyph unicode="{" horiz-adv-x="561" d="M14 629v114q96 20 140.5 53t44.5 105v381q0 43 8 78t17 61.5t30.5 47t36 34t44.5 22.5t44 13t47 7t43 3h42h34v-114q-104 0 -141 -45.5t-37 -139.5v-313q0 -106 -44 -165.5t-165 -82.5v-4q125 -27 167 -94.5t42 -188.5v-352q0 -92 37.5 -137t140.5 -45v-115 q-201 -6 -273.5 61.5t-72.5 239.5v404q0 39 -7.5 64.5t-29 43t-34.5 24.5t-54.5 20.5t-59.5 19.5z" />
<glyph unicode="|" horiz-adv-x="512" d="M193 -512v2048h126v-2048h-126z" />
<glyph unicode="}" horiz-adv-x="561" d="M14 -133q102 0 140.5 45t38.5 137v352q0 121 41.5 188.5t166.5 94.5v4q-121 23 -164.5 82t-43.5 166v313q0 94 -37 139.5t-142 45.5v114h34h42q10 0 43 -3t47.5 -7t44 -13t44 -22.5t36 -34t30.5 -47t17 -61.5t8 -78v-381q0 -72 44.5 -104.5t140.5 -53.5v-114 q-18 -6 -59.5 -19.5t-54.5 -20.5t-34.5 -24.5t-29 -43t-7.5 -64.5v-404q0 -172 -72.5 -239.5t-273.5 -61.5v115z" />
<glyph unicode="~" d="M90 438q49 109 104.5 175.5t135.5 66.5q70 0 196 -72q139 -72 174 -71q90 0 166 170l70 -97q-100 -227 -238 -227q-47 0 -227 90q-98 51 -141 51q-41 0 -77 -32.5t-51.5 -63.5t-41.5 -88z" />
<glyph unicode="&#xa1;" horiz-adv-x="681" d="M229 -391l41 1136h146l37 -1136h-224zM246 874v213h192v-213h-192z" />
<glyph unicode="&#xa2;" horiz-adv-x="909" d="M94 502q0 104 6 175t30 148.5t65 123.5t114.5 76t177.5 30q70 0 125 -19l54 129l71 -30l-53 -131q131 -84 121 -302h-174q0 82 -17 129l-272 -657q47 -59 145 -59q74 0 111 66.5t39 162.5h176q0 -164 -99.5 -265.5t-226.5 -101.5q-131 0 -208 41l-58 -137l-76 33l64 154 q-115 121 -115 434zM270 573q0 -203 23 -299h4l258 625q-25 18 -68 19q-106 0 -161.5 -73t-55.5 -272z" />
<glyph unicode="&#xa3;" horiz-adv-x="909" d="M-8 692v164h164v166v29q-2 29 -1 48t4 57t13 65.5t26.5 64.5t45 62.5t66.5 48t93.5 35t122.5 12.5q176 0 271.5 -96.5t87.5 -272.5h-197q8 211 -164 211q-45 0 -78.5 -9t-52 -32.5t-30 -39t-15.5 -57.5t-4 -55v-63v-174h283v-164h-283v-528h533v-164h-873v164h152v528 h-164z" />
<glyph unicode="&#xa4;" horiz-adv-x="909" d="M-6 614q0 172 88 310l-80 88l96 108l80 -88q121 100 285 101q139 0 268 -101l82 88l96 -108l-78 -88q86 -145 87 -320q0 -145 -87 -293l78 -86l-96 -108l-82 88q-125 -102 -285 -103q-135 0 -268 103l-80 -88l-96 108l80 86q-88 143 -88 303zM162 614q0 -154 80 -264 t209 -110q135 0 217 109.5t82 271.5q0 154 -79 264t-208 110q-139 0 -220 -107.5t-81 -273.5z" />
<glyph unicode="&#xa5;" horiz-adv-x="909" d="M-4 1421h199l266 -657l274 657h180l-327 -741h186v-137h-237v-135h237v-138h-237v-270h-168v270h-234v138h234v135h-234v137h182z" />
<glyph unicode="&#xa6;" horiz-adv-x="512" d="M193 358h126v-716h-126v716zM193 666v716h126v-716h-126z" />
<glyph unicode="&#xa7;" horiz-adv-x="909" d="M113 702q0 164 211 265q-90 43 -137.5 97t-47.5 144q0 147 105.5 224t249.5 77q123 0 233 -39v-172q-156 53 -223 54q-66 0 -119 -34t-53 -95q0 -57 46 -95t112.5 -61t133 -49.5t112.5 -80.5t46 -136q0 -94 -59 -166t-152 -103v-4q96 -20 160 -85.5t64 -159.5 q0 -158 -110 -236t-273 -78q-123 0 -271 41v176q4 0 50.5 -18t100.5 -29.5t114 -11.5q78 0 137 35t59 102q0 61 -50 100t-123 63t-144.5 50.5t-121.5 82.5t-50 142zM281 745q0 -33 7 -56t26.5 -39.5t32.5 -25t48 -22.5t49 -20q49 12 109.5 62t60.5 120q0 41 -22.5 71.5 t-43 42t-63.5 27t-47 17.5q-157 -64 -157 -177z" />
<glyph unicode="&#xa8;" horiz-adv-x="569" d="M8 1208v213h193v-213h-193zM369 1208v213h192v-213h-192z" />
<glyph unicode="&#xa9;" horiz-adv-x="1638" d="M49 741q0 319 226.5 543.5t545.5 224.5q317 0 542.5 -224t225.5 -544q0 -322 -224 -547t-543.5 -225t-546 225t-226.5 547zM164 739.5q0 -272.5 191.5 -464t465.5 -191.5q272 0 463 190.5t191 464.5q0 272 -190.5 464t-463 192t-465 -191.5t-192.5 -464zM506 662v206 q0 168 70.5 259.5t248.5 91.5q147 0 214 -64.5t63 -198.5h-144q0 55 -12 88t-40.5 44.5t-42 13.5t-46.5 2q-84 0 -126 -40t-42 -138v-291q0 -121 42 -166t124 -45q154 0 158 166h143q4 -127 -69.5 -204t-212.5 -77h-11q-47 0 -74.5 2t-80 20.5t-83 52.5t-55 106t-24.5 172z " />
<glyph unicode="&#xaa;" horiz-adv-x="614" d="M37 1069q0 211 383 201q2 45 -4 74.5t-35 55t-84 25.5q-57 0 -89 -26.5t-28 -75.5h-129q8 186 250 186q254 0 254 -186v-299q0 -66 14 -147h-147v90h-4q-43 -102 -178 -103q-102 0 -152.5 55.5t-50.5 149.5zM172 1061q0 -113 98 -113q162 0 150 238q-145 -2 -187 -21 q-61 -28 -61 -104z" />
<glyph unicode="&#xab;" horiz-adv-x="909" d="M63 553l191 401h156l-162 -401l160 -395h-160zM416 553l190 401h156l-162 -401l160 -395h-160z" />
<glyph unicode="&#xac;" d="M88 659v127h848v-546h-127v419h-721z" />
<glyph unicode="&#xad;" horiz-adv-x="681" d="M115 479v158h450v-158h-450z" />
<glyph unicode="&#xae;" horiz-adv-x="1638" d="M49 741q0 319 226.5 543.5t545.5 224.5q317 0 542.5 -224t225.5 -544q0 -322 -224 -547t-543.5 -225t-546 225t-226.5 547zM164 739.5q0 -272.5 191.5 -464t465.5 -191.5q272 0 463 190.5t191 464.5q0 272 -190.5 464t-463 192t-465 -191.5t-192.5 -464zM532 295v887h353 q119 0 183.5 -65.5t64.5 -155.5q0 -78 -53.5 -133.5t-139.5 -71.5v-4q86 -10 119 -53.5t37 -172.5q8 -160 34 -231h-141q-16 29 -22 70t-9.5 116.5t-5.5 108.5q-10 100 -133 100h-143v-395h-144zM676 805h184q63 0 96 41t33 102q0 55 -31.5 95t-97.5 40h-184v-278z" />
<glyph unicode="&#xaf;" horiz-adv-x="569" d="M2 1245v115h565v-115h-565z" />
<glyph unicode="&#xb0;" horiz-adv-x="819" d="M102 1137q-2 125 89.5 216t218.5 91t217 -91t90 -216q0 -127 -90 -217.5t-217 -90.5t-217.5 90.5t-90.5 217.5zM229 1137q0 -76 52.5 -128.5t128.5 -52.5q74 0 127 52.5t53 128.5q0 74 -53.5 127t-128.5 53q-74 0 -127.5 -53t-51.5 -127z" />
<glyph unicode="&#xb1;" d="M88 0v127h848v-127h-848zM88 575v127h361v332h126v-332h361v-127h-361v-331h-126v331h-361z" />
<glyph unicode="&#xb2;" horiz-adv-x="544" d="M27 578v108q49 61 117.5 145t95 117t61.5 81t46 73.5t20.5 57.5t9.5 67q0 45 -29 73.5t-86 28.5q-90 0 -86 -129h-145q-10 102 49 173t174 71q139 0 202.5 -54.5t63.5 -168.5q0 -70 -24.5 -131.5t-50 -97.5t-111.5 -137t-139 -169h329v-108h-497z" />
<glyph unicode="&#xb3;" horiz-adv-x="544" d="M2 803v10h131q2 -68 25.5 -103.5t93.5 -35.5q141 0 141 133q0 94 -45 131t-153 37v98q84 -6 131 31t47 110q0 127 -117 127q-113 0 -109 -131h-129q-8 111 51.5 172.5t186.5 61.5q121 0 190.5 -56.5t69.5 -164.5q0 -57 -19.5 -96.5t-59.5 -61t-58.5 -27.5t-54.5 -14v-4 q213 -25 213 -215q0 -121 -79 -183.5t-216 -62.5q-244 0 -240 244z" />
<glyph unicode="&#xb4;" horiz-adv-x="569" d="M123 1190l182 289h223l-268 -289h-137z" />
<glyph unicode="&#xb5;" d="M154 -391v1425h168v-717q0 -96 45 -152t131 -56q78 0 140 60t62 179v686h168v-819q0 -96 11 -215h-179v125h-6q-86 -145 -262 -145q-76 0 -110 20v-391h-168z" />
<glyph unicode="&#xb6;" horiz-adv-x="901" d="M16 1081q0 45 7.5 90.5t31 103.5t62.5 101t109.5 73t164.5 30h402v-1727h-144v1589h-168v-1589h-143v940q-127 -2 -224.5 114.5t-97.5 274.5z" />
<glyph unicode="&#xb7;" horiz-adv-x="454" d="M131 412v213h193v-213h-193z" />
<glyph unicode="&#xb8;" horiz-adv-x="569" d="M61 -416l35 82q84 -31 133 -31q45 0 81 19.5t36 62.5q0 41 -28.5 62.5t-71.5 21.5q-12 0 -78 -16l-35 39l129 176h98l-94 -123l4 -4q33 12 62 12q72 0 121 -42t49 -113q0 -96 -73 -143.5t-165 -47.5t-203 45z" />
<glyph unicode="&#xb9;" horiz-adv-x="544" d="M102 1206v121q49 20 156 103h127v-852h-143v714z" />
<glyph unicode="&#xba;" horiz-adv-x="614" d="M41 1178q0 162 53 246.5t213 84.5t213 -85t53 -246q0 -98 -20.5 -164t-60 -96.5t-82.5 -42t-103 -11.5q-127 0 -196.5 63t-69.5 251zM176 1221q0 -158 24.5 -215.5t106.5 -57.5t106.5 57.5t24.5 215.5q0 121 -31.5 162.5t-99 41.5t-99.5 -41.5t-32 -162.5z" />
<glyph unicode="&#xbb;" horiz-adv-x="909" d="M147 954h156l191 -401l-185 -395h-159l159 395zM500 954h155l191 -401l-184 -395h-160l160 395z" />
<glyph unicode="&#xbc;" horiz-adv-x="1363" d="M102 1206v121q49 20 156 103h127v-852h-143v714zM133 -55l895 1534h127l-893 -1534h-129zM719 201v104l262 547h203v-537h108v-114h-108v-201h-144v201h-321zM850 315h190v410h-4z" />
<glyph unicode="&#xbd;" horiz-adv-x="1363" d="M41 1206v121q49 20 156 103h127v-852h-144v714zM72 -55l895 1534h127l-893 -1534h-129zM788 0v109q49 61 118 145t95.5 116.5t61.5 81t46 74t20.5 57t9.5 66.5q0 45 -29 74t-86 29q-90 0 -86 -129h-145q-10 102 49 172.5t174 70.5q139 0 202.5 -54t63.5 -169 q0 -70 -24.5 -131t-50 -97t-111.5 -137.5t-140 -168.5h330v-109h-498z" />
<glyph unicode="&#xbe;" horiz-adv-x="1363" d="M12 803v10h131q2 -68 26 -103.5t93 -35.5q141 0 141 133q0 94 -45 131t-153 37v98q84 -6 131 31t47 110q0 127 -117 127q-113 0 -108 -131h-129q-8 111 51 172.5t186 61.5q121 0 190.5 -56.5t69.5 -164.5q0 -57 -19.5 -96.5t-59 -61t-58 -27.5t-55.5 -14v-4 q213 -25 213 -215q0 -121 -79 -183.5t-216 -62.5q-244 0 -240 244zM205 -55l895 1534h127l-893 -1534h-129zM750 201v104l262 547h202v-537h109v-114h-109v-201h-143v201h-321zM881 315h190v410h-4z" />
<glyph unicode="&#xbf;" horiz-adv-x="909" d="M104 -80q0 115 43 215.5t93.5 155.5t93.5 118.5t43 112.5v191h168v-234q0 -59 -39 -126.5t-85 -122t-85 -139.5t-39 -175q0 -78 39 -139.5t115 -61.5q158 0 151 285h193q16 -422 -357 -422q-156 0 -245 92t-89 250zM365 874v213h192v-213h-192z" />
<glyph unicode="&#xc0;" horiz-adv-x="1251" d="M31 0l469 1479h239l482 -1479h-211l-107 352h-571l-111 -352h-190zM379 516h473l-238 789h-4zM383 1923h223l182 -289h-137z" />
<glyph unicode="&#xc1;" horiz-adv-x="1251" d="M31 0l469 1479h239l482 -1479h-211l-107 352h-571l-111 -352h-190zM379 516h473l-238 789h-4zM465 1634l182 289h223l-268 -289h-137z" />
<glyph unicode="&#xc2;" horiz-adv-x="1251" d="M31 0l469 1479h239l482 -1479h-211l-107 352h-571l-111 -352h-190zM328 1634l204 289h189l205 -289h-164l-135 193l-135 -193h-164zM379 516h473l-238 789h-4z" />
<glyph unicode="&#xc3;" horiz-adv-x="1251" d="M31 0l469 1479h239l482 -1479h-211l-107 352h-571l-111 -352h-190zM279 1628q10 100 63 160.5t150 60.5q59 0 153 -37q90 -39 121 -38q96 0 104 92h105q-10 -92 -64 -156q-57 -68 -149 -68q-39 0 -148 39q-98 39 -147 39q-35 0 -62.5 -28.5t-31.5 -63.5h-94zM379 516h473 l-238 789h-4z" />
<glyph unicode="&#xc4;" horiz-adv-x="1251" d="M31 0l469 1479h239l482 -1479h-211l-107 352h-571l-111 -352h-190zM350 1653v213h193v-213h-193zM379 516h473l-238 789h-4zM711 1653v213h192v-213h-192z" />
<glyph unicode="&#xc5;" horiz-adv-x="1251" d="M31 0l469 1479h239l482 -1479h-211l-107 352h-571l-111 -352h-190zM379 516h473l-238 789h-4zM420 1819q0 86 60.5 146t146.5 60t146.5 -60t60.5 -146t-60.5 -146.5t-146.5 -60.5t-146.5 60.5t-60.5 146.5zM504 1819q0 -49 35.5 -86t87.5 -37q49 0 86 36.5t37 86.5 q0 51 -37 87t-86 36q-51 0 -87 -36t-36 -87z" />
<glyph unicode="&#xc6;" horiz-adv-x="1705" d="M31 0l649 1479h917v-164h-608l64 -475h528v-164h-500l72 -512h465v-164h-627l-51 352h-561l-150 -352h-198zM455 516h463l-113 811h-4z" />
<glyph unicode="&#xc7;" horiz-adv-x="1138" d="M150 555v418q0 297 120.5 416.5t354.5 119.5q215 0 308 -109.5t79 -328.5h-195q4 158 -43 215q-27 31 -77 47.5t-89 16.5q-70 0 -124 -26t-74.5 -49.5t-24.5 -39.5q0 -2 -5 -11.5t-9 -19.5t-9.5 -33.5t-9.5 -53.5t-7 -80t-3 -109v-396q0 -131 19.5 -216t59.5 -123.5 t82 -52t103 -13.5q31 0 61.5 9t73.5 36t71 95.5t28 168.5h194q2 -129 -31.5 -223t-77.5 -139t-112 -71t-105.5 -30t-84.5 -4l-72 -92l4 -4q33 12 61 12q72 0 121 -42t49 -113q0 -96 -72.5 -143.5t-164.5 -47.5t-203 45l35 82q84 -31 133 -31q45 0 81 19.5t36 62.5 q0 41 -29 62.5t-72 21.5q-12 0 -77 -16l-35 39l108 149q-59 4 -106 17.5t-100.5 52.5t-88 99.5t-58 166t-23.5 246.5z" />
<glyph unicode="&#xc8;" d="M166 0v1479h762v-164h-574v-475h533v-164h-533v-512h586v-164h-774zM268 1923h224l182 -289h-137z" />
<glyph unicode="&#xc9;" d="M166 0v1479h762v-164h-574v-475h533v-164h-533v-512h586v-164h-774zM350 1634l182 289h224l-269 -289h-137z" />
<glyph unicode="&#xca;" d="M166 0v1479h762v-164h-574v-475h533v-164h-533v-512h586v-164h-774zM213 1634l205 289h188l205 -289h-164l-135 193l-135 -193h-164z" />
<glyph unicode="&#xcb;" d="M166 0v1479h762v-164h-574v-475h533v-164h-533v-512h586v-164h-774zM236 1653v213h192v-213h-192zM596 1653v213h192v-213h-192z" />
<glyph unicode="&#xcc;" horiz-adv-x="569" d="M41 1923h223l182 -289h-137zM190 0v1479h189v-1479h-189z" />
<glyph unicode="&#xcd;" horiz-adv-x="569" d="M123 1634l182 289h223l-268 -289h-137zM190 0v1479h189v-1479h-189z" />
<glyph unicode="&#xce;" horiz-adv-x="569" d="M-14 1634l204 289h189l205 -289h-164l-135 193l-135 -193h-164zM190 0v1479h189v-1479h-189z" />
<glyph unicode="&#xcf;" horiz-adv-x="569" d="M8 1653v213h193v-213h-193zM190 0v1479h189v-1479h-189zM369 1653v213h192v-213h-192z" />
<glyph unicode="&#xd0;" horiz-adv-x="1251" d="M27 750v114h143v615h455q293 0 397 -226q66 -137 65 -467q0 -453 -90 -596q-121 -190 -487 -190h-340v750h-143zM358 164h179q201 0 279.5 94t78.5 348v299q0 221 -69.5 315.5t-219.5 94.5h-248v-451h310v-114h-310v-586z" />
<glyph unicode="&#xd1;" horiz-adv-x="1366" d="M176 0v1479h266l576 -1266h4v1266h168v-1479h-258l-584 1282h-4v-1282h-168zM336 1628q10 100 63.5 160.5t149.5 60.5q59 0 153 -37q90 -39 121 -38q96 0 105 92h104q-10 -92 -63 -156q-57 -68 -150 -68q-39 0 -147 39q-98 39 -148 39q-35 0 -62.5 -28.5t-31.5 -63.5h-94 z" />
<glyph unicode="&#xd2;" horiz-adv-x="1251" d="M160 541v485q0 227 117.5 355t347 128t347.5 -128t118 -355v-485q0 -303 -113 -437.5t-352.5 -134.5t-352 134.5t-112.5 437.5zM352 532q0 -231 65.5 -318t207 -87t207 87t65.5 318v500q0 88 -23.5 151.5t-54.5 95.5t-74 49.5t-68.5 20.5t-52 3t-52 -3t-68.5 -20.5 t-74 -49.5t-54.5 -95.5t-23.5 -151.5v-500zM383 1923h223l182 -289h-137z" />
<glyph unicode="&#xd3;" horiz-adv-x="1251" d="M160 541v485q0 227 117.5 355t347 128t347.5 -128t118 -355v-485q0 -303 -113 -437.5t-352.5 -134.5t-352 134.5t-112.5 437.5zM352 532q0 -231 65.5 -318t207 -87t207 87t65.5 318v500q0 88 -23.5 151.5t-54.5 95.5t-74 49.5t-68.5 20.5t-52 3t-52 -3t-68.5 -20.5 t-74 -49.5t-54.5 -95.5t-23.5 -151.5v-500zM465 1634l182 289h223l-268 -289h-137z" />
<glyph unicode="&#xd4;" horiz-adv-x="1251" d="M160 541v485q0 227 117.5 355t347 128t347.5 -128t118 -355v-485q0 -303 -113 -437.5t-352.5 -134.5t-352 134.5t-112.5 437.5zM328 1634l204 289h189l205 -289h-164l-135 193l-135 -193h-164zM352 532q0 -231 65.5 -318t207 -87t207 87t65.5 318v500q0 88 -23.5 151.5 t-54.5 95.5t-74 49.5t-68.5 20.5t-52 3t-52 -3t-68.5 -20.5t-74 -49.5t-54.5 -95.5t-23.5 -151.5v-500z" />
<glyph unicode="&#xd5;" horiz-adv-x="1251" d="M160 541v485q0 227 117.5 355t347 128t347.5 -128t118 -355v-485q0 -303 -113 -437.5t-352.5 -134.5t-352 134.5t-112.5 437.5zM279 1628q10 100 63 160.5t150 60.5q59 0 153 -37q90 -39 121 -38q96 0 104 92h105q-10 -92 -64 -156q-57 -68 -149 -68q-39 0 -148 39 q-98 39 -147 39q-35 0 -62.5 -28.5t-31.5 -63.5h-94zM352 532q0 -231 65.5 -318t207 -87t207 87t65.5 318v500q0 88 -23.5 151.5t-54.5 95.5t-74 49.5t-68.5 20.5t-52 3t-52 -3t-68.5 -20.5t-74 -49.5t-54.5 -95.5t-23.5 -151.5v-500z" />
<glyph unicode="&#xd6;" horiz-adv-x="1251" d="M160 541v485q0 227 117.5 355t347 128t347.5 -128t118 -355v-485q0 -303 -113 -437.5t-352.5 -134.5t-352 134.5t-112.5 437.5zM350 1653v213h193v-213h-193zM352 532q0 -231 65.5 -318t207 -87t207 87t65.5 318v500q0 88 -23.5 151.5t-54.5 95.5t-74 49.5t-68.5 20.5 t-52 3t-52 -3t-68.5 -20.5t-74 -49.5t-54.5 -95.5t-23.5 -151.5v-500zM711 1653v213h192v-213h-192z" />
<glyph unicode="&#xd7;" d="M88 184l334 334l-334 334l90 90l334 -334l334 334l90 -90l-334 -334l334 -334l-90 -90l-334 334l-334 -334z" />
<glyph unicode="&#xd8;" horiz-adv-x="1251" d="M84 -20l137 208q-61 127 -61 353v485q0 227 117.5 355t347.5 128q246 0 364 -145l105 162l71 -47l-127 -195q51 -102 52 -258v-485q0 -303 -113 -437.5t-352 -134.5q-238 0 -355 142l-116 -179zM352 532q0 -82 8 -131l512 785q-59 166 -247 166q-27 0 -52.5 -3 t-68.5 -20.5t-74 -49.5t-54.5 -95.5t-23.5 -151.5v-500zM385 287q55 -160 240 -160q141 0 206.5 87t65.5 318v500q0 23 -2 33z" />
<glyph unicode="&#xd9;" horiz-adv-x="1251" d="M160 541v938h188v-947q0 -231 66.5 -318t210 -87t210 87t66.5 318v947h189v-938q0 -303 -113 -437.5t-352.5 -134.5t-352 134.5t-112.5 437.5zM383 1923h223l182 -289h-137z" />
<glyph unicode="&#xda;" horiz-adv-x="1251" d="M160 541v938h188v-947q0 -231 66.5 -318t210 -87t210 87t66.5 318v947h189v-938q0 -303 -113 -437.5t-352.5 -134.5t-352 134.5t-112.5 437.5zM465 1634l182 289h223l-268 -289h-137z" />
<glyph unicode="&#xdb;" horiz-adv-x="1251" d="M160 541v938h188v-947q0 -231 66.5 -318t210 -87t210 87t66.5 318v947h189v-938q0 -303 -113 -437.5t-352.5 -134.5t-352 134.5t-112.5 437.5zM328 1634l204 289h189l205 -289h-164l-135 193l-135 -193h-164z" />
<glyph unicode="&#xdc;" horiz-adv-x="1251" d="M160 541v938h188v-947q0 -231 66.5 -318t210 -87t210 87t66.5 318v947h189v-938q0 -303 -113 -437.5t-352.5 -134.5t-352 134.5t-112.5 437.5zM350 1653v213h193v-213h-193zM711 1653v213h192v-213h-192z" />
<glyph unicode="&#xdd;" d="M16 1479h211l289 -715l299 715h191l-404 -916v-563h-188v563zM350 1634l182 289h224l-269 -289h-137z" />
<glyph unicode="&#xde;" horiz-adv-x="1138" d="M190 0v1479h189v-250h250q412 0 411 -422q0 -119 -42 -204t-109.5 -126t-132 -58.5t-129.5 -17.5h-248v-401h-189zM379 565h207q39 0 75.5 8.5t83 31t75 76.5t28.5 136q0 78 -25.5 132.5t-64.5 77t-67.5 30.5t-51.5 8h-260v-500z" />
<glyph unicode="&#xdf;" horiz-adv-x="1138" d="M143 0v1186q0 92 43 159.5t107.5 100.5t124 48t110.5 15q170 0 276.5 -71.5t106.5 -237.5q0 -109 -108 -217q-6 -6 -32 -29.5t-34 -33t-23.5 -28t-20.5 -34.5t-5 -35q0 -39 35 -77.5t84 -75.5t99 -81t85 -115t35 -157q0 -41 -4 -76.5t-22.5 -87t-50 -87t-93 -62.5 t-145.5 -27q-305 0 -305 279h176q-4 -66 28.5 -103.5t98.5 -37.5q141 0 141 188q0 80 -53.5 143.5t-116 101.5t-115.5 106.5t-53 158.5q0 66 106 184q104 121 105 187q0 92 -50 140t-141 48q-61 0 -105 -17.5t-66.5 -39t-34 -61.5t-13.5 -66.5t-2 -69.5v-1118h-168z" />
<glyph unicode="&#xe0;" d="M133 319q0 90 36 154t86 96.5t130 50t142.5 20.5t148.5 1q0 41 1 82t-8.5 78t-26.5 65.5t-53 45t-87 16.5q-84 0 -127 -51.5t-35 -133.5h-182q6 168 93 240t257 72q186 0 261 -83t75 -229v-497q0 -113 20 -246h-184v150h-4q-74 -170 -260 -170q-156 0 -219.5 88.5 t-63.5 250.5zM268 1479h224l182 -289h-137zM301 307q0 -82 41 -136t121 -54q233 0 213 397q-182 -2 -242 -20q-133 -42 -133 -187z" />
<glyph unicode="&#xe1;" d="M133 319q0 90 36 154t86 96.5t130 50t142.5 20.5t148.5 1q0 41 1 82t-8.5 78t-26.5 65.5t-53 45t-87 16.5q-84 0 -127 -51.5t-35 -133.5h-182q6 168 93 240t257 72q186 0 261 -83t75 -229v-497q0 -113 20 -246h-184v150h-4q-74 -170 -260 -170q-156 0 -219.5 88.5 t-63.5 250.5zM301 307q0 -82 41 -136t121 -54q233 0 213 397q-182 -2 -242 -20q-133 -42 -133 -187zM350 1190l182 289h224l-269 -289h-137z" />
<glyph unicode="&#xe2;" d="M133 319q0 90 36 154t86 96.5t130 50t142.5 20.5t148.5 1q0 41 1 82t-8.5 78t-26.5 65.5t-53 45t-87 16.5q-84 0 -127 -51.5t-35 -133.5h-182q6 168 93 240t257 72q186 0 261 -83t75 -229v-497q0 -113 20 -246h-184v150h-4q-74 -170 -260 -170q-156 0 -219.5 88.5 t-63.5 250.5zM213 1190l205 289h188l205 -289h-164l-135 192l-135 -192h-164zM301 307q0 -82 41 -136t121 -54q233 0 213 397q-182 -2 -242 -20q-133 -42 -133 -187z" />
<glyph unicode="&#xe3;" d="M133 319q0 90 36 154t86 96.5t130 50t142.5 20.5t148.5 1q0 41 1 82t-8.5 78t-26.5 65.5t-53 45t-87 16.5q-84 0 -127 -51.5t-35 -133.5h-182q6 168 93 240t257 72q186 0 261 -83t75 -229v-497q0 -113 20 -246h-184v150h-4q-74 -170 -260 -170q-156 0 -219.5 88.5 t-63.5 250.5zM164 1184q10 100 63.5 160.5t149.5 60.5q59 0 153 -37q90 -39 121 -39q96 0 105 92h104q-10 -92 -63 -155q-57 -68 -150 -68q-39 0 -147 39q-98 39 -148 39q-35 0 -62.5 -28.5t-31.5 -63.5h-94zM301 307q0 -82 41 -136t121 -54q233 0 213 397q-182 -2 -242 -20 q-133 -42 -133 -187z" />
<glyph unicode="&#xe4;" d="M133 319q0 90 36 154t86 96.5t130 50t142.5 20.5t148.5 1q0 41 1 82t-8.5 78t-26.5 65.5t-53 45t-87 16.5q-84 0 -127 -51.5t-35 -133.5h-182q6 168 93 240t257 72q186 0 261 -83t75 -229v-497q0 -113 20 -246h-184v150h-4q-74 -170 -260 -170q-156 0 -219.5 88.5 t-63.5 250.5zM236 1208v213h192v-213h-192zM301 307q0 -82 41 -136t121 -54q233 0 213 397q-182 -2 -242 -20q-133 -42 -133 -187zM596 1208v213h192v-213h-192z" />
<glyph unicode="&#xe5;" d="M133 319q0 90 36 154t86 96.5t130 50t142.5 20.5t148.5 1q0 41 1 82t-8.5 78t-26.5 65.5t-53 45t-87 16.5q-84 0 -127 -51.5t-35 -133.5h-182q6 168 93 240t257 72q186 0 261 -83t75 -229v-497q0 -113 20 -246h-184v150h-4q-74 -170 -260 -170q-156 0 -219.5 88.5 t-63.5 250.5zM301 307q0 -82 41 -136t121 -54q233 0 213 397q-182 -2 -242 -20q-133 -42 -133 -187zM305 1374q0 86 60.5 146.5t146.5 60.5t146.5 -60.5t60.5 -146.5t-60.5 -146.5t-146.5 -60.5t-146.5 60.5t-60.5 146.5zM389 1374q0 -49 36 -86t87 -37q49 0 86 37t37 86 q0 51 -37 87t-86 36q-51 0 -87 -36t-36 -87z" />
<glyph unicode="&#xe6;" horiz-adv-x="1593" d="M137 289q0 63 15.5 112.5t36 82t61.5 56t71.5 37t89 21.5t92.5 10t100.5 5t94.5 5v105q0 104 -45 154.5t-147 50.5q-84 0 -127 -51.5t-35 -133.5h-182q6 168 93 240t257 72q113 0 188.5 -31t106.5 -119h4q23 76 97.5 113t164.5 37q43 0 75 -3t78 -14.5t77.5 -34 t66.5 -64.5t54.5 -99.5t29.5 -146.5t2 -201h-579q6 -182 24 -244q41 -131 174 -131q182 0 193 215h182q0 -68 -12.5 -120t-48 -109.5t-118.5 -90t-206 -32.5q-102 0 -185 47t-112 139q-80 -186 -326 -186q-147 0 -226 81t-79 228zM324 289q0 -80 39.5 -126t121.5 -46 q100 0 162 76.5t51 298.5h-30q-53 0 -81 -1.5t-76 -5.5t-74.5 -17t-56.5 -34.5t-43 -58.5t-13 -86zM877 618h401q8 309 -205 310q-196 -1 -196 -310z" />
<glyph unicode="&#xe7;" d="M152 502q0 104 6 175t29.5 148.5t64.5 123.5t114.5 76t178.5 30q158 0 241.5 -90.5t75.5 -262.5h-174q2 115 -41 165.5t-102 50.5q-106 0 -161.5 -73t-55.5 -272q0 -258 45 -357t172 -99q49 0 101 53t48 174h176q2 -96 -26.5 -169t-76.5 -111.5t-96 -58t-98 -23.5 l-79 -105l4 -4q33 12 61 12q72 0 121 -42t49 -113q0 -96 -72.5 -143.5t-165 -47.5t-202.5 45l35 82q84 -31 133 -31q45 0 80.5 19.5t35.5 62.5q0 41 -28.5 62.5t-71.5 21.5q-12 0 -78 -16l-35 39l117 158q-76 6 -130 31.5t-101 81t-70.5 158t-23.5 249.5z" />
<glyph unicode="&#xe8;" d="M131 502q0 104 6 175t29.5 148.5t64.5 123.5t115 76t178 30q213 0 291 -118t78 -386v-88h-582q0 -203 50.5 -274.5t158.5 -71.5q82 0 129 56t51 140h185q-2 -168 -97.5 -250.5t-263.5 -82.5q-92 0 -155.5 18t-122 70.5t-87 160t-28.5 273.5zM268 1479h224l182 -289h-137z M311 590h404q0 209 -50.5 273.5t-156.5 64.5q-92 0 -143.5 -70.5t-53.5 -267.5z" />
<glyph unicode="&#xe9;" d="M131 502q0 104 6 175t29.5 148.5t64.5 123.5t115 76t178 30q213 0 291 -118t78 -386v-88h-582q0 -203 50.5 -274.5t158.5 -71.5q82 0 129 56t51 140h185q-2 -168 -97.5 -250.5t-263.5 -82.5q-92 0 -155.5 18t-122 70.5t-87 160t-28.5 273.5zM311 590h404 q0 209 -50.5 273.5t-156.5 64.5q-92 0 -143.5 -70.5t-53.5 -267.5zM350 1190l182 289h224l-269 -289h-137z" />
<glyph unicode="&#xea;" d="M131 502q0 104 6 175t29.5 148.5t64.5 123.5t115 76t178 30q213 0 291 -118t78 -386v-88h-582q0 -203 50.5 -274.5t158.5 -71.5q82 0 129 56t51 140h185q-2 -168 -97.5 -250.5t-263.5 -82.5q-92 0 -155.5 18t-122 70.5t-87 160t-28.5 273.5zM213 1190l205 289h188 l205 -289h-164l-135 192l-135 -192h-164zM311 590h404q0 209 -50.5 273.5t-156.5 64.5q-92 0 -143.5 -70.5t-53.5 -267.5z" />
<glyph unicode="&#xeb;" d="M131 502q0 104 6 175t29.5 148.5t64.5 123.5t115 76t178 30q213 0 291 -118t78 -386v-88h-582q0 -203 50.5 -274.5t158.5 -71.5q82 0 129 56t51 140h185q-2 -168 -97.5 -250.5t-263.5 -82.5q-92 0 -155.5 18t-122 70.5t-87 160t-28.5 273.5zM236 1208v213h192v-213h-192z M311 590h404q0 209 -50.5 273.5t-156.5 64.5q-92 0 -143.5 -70.5t-53.5 -267.5zM596 1208v213h192v-213h-192z" />
<glyph unicode="&#xec;" horiz-adv-x="454" d="M-16 1479h223l182 -289h-137zM143 0v1034h168v-1034h-168z" />
<glyph unicode="&#xed;" horiz-adv-x="454" d="M66 1190l182 289h223l-268 -289h-137zM143 0v1034h168v-1034h-168z" />
<glyph unicode="&#xee;" horiz-adv-x="454" d="M-72 1190l205 289h189l204 -289h-164l-135 192l-135 -192h-164zM143 0v1034h168v-1034h-168z" />
<glyph unicode="&#xef;" horiz-adv-x="454" d="M-49 1208v213h192v-213h-192zM143 0v1034h168v-1034h-168zM311 1208v213h193v-213h-193z" />
<glyph unicode="&#xf0;" d="M119 492q0 102 6 171.5t27.5 145.5t60.5 121t108.5 74.5t165.5 29.5q106 0 183 -76l4 5q-49 143 -207 309l-180 -105l-64 62l170 100q-86 72 -172 117l113 96q104 -51 198 -131l191 113l61 -68l-186 -108q160 -162 233.5 -351.5t73.5 -504.5q0 -162 -28.5 -268.5 t-87 -157t-122 -68.5t-155.5 -18t-155.5 18t-122 68.5t-87 157t-28.5 268.5zM295 561q0 -252 45 -349t172 -97t172 97t45 349q0 195 -55.5 266.5t-161.5 71.5t-161.5 -71.5t-55.5 -266.5z" />
<glyph unicode="&#xf1;" d="M137 1034h178v-133h9q49 86 111.5 120t164.5 34q156 0 216.5 -85t60.5 -253v-717h-168v717q0 201 -183 201q-211 0 -211 -306v-612h-168v819q0 96 -10 215zM164 1184q10 100 63.5 160.5t149.5 60.5q59 0 153 -37q90 -39 121 -39q96 0 105 92h104q-10 -92 -63 -155 q-57 -68 -150 -68q-39 0 -147 39q-98 39 -148 39q-35 0 -62.5 -28.5t-31.5 -63.5h-94z" />
<glyph unicode="&#xf2;" d="M119 502q0 104 6 175t29.5 148.5t64.5 123.5t115 76t178 30t178 -30t115 -76t64.5 -123.5t29.5 -148.5t6 -175q0 -166 -28.5 -273.5t-87 -160t-122 -70.5t-155.5 -18t-155.5 18t-122 70.5t-87 160t-28.5 273.5zM268 1479h224l182 -289h-137zM295 573q0 -258 45 -357 t172 -99t172 99t45 357q0 199 -55.5 272t-161.5 73t-161.5 -73t-55.5 -272z" />
<glyph unicode="&#xf3;" d="M119 502q0 104 6 175t29.5 148.5t64.5 123.5t115 76t178 30t178 -30t115 -76t64.5 -123.5t29.5 -148.5t6 -175q0 -166 -28.5 -273.5t-87 -160t-122 -70.5t-155.5 -18t-155.5 18t-122 70.5t-87 160t-28.5 273.5zM295 573q0 -258 45 -357t172 -99t172 99t45 357 q0 199 -55.5 272t-161.5 73t-161.5 -73t-55.5 -272zM350 1190l182 289h224l-269 -289h-137z" />
<glyph unicode="&#xf4;" d="M119 502q0 104 6 175t29.5 148.5t64.5 123.5t115 76t178 30t178 -30t115 -76t64.5 -123.5t29.5 -148.5t6 -175q0 -166 -28.5 -273.5t-87 -160t-122 -70.5t-155.5 -18t-155.5 18t-122 70.5t-87 160t-28.5 273.5zM213 1190l205 289h188l205 -289h-164l-135 192l-135 -192 h-164zM295 573q0 -258 45 -357t172 -99t172 99t45 357q0 199 -55.5 272t-161.5 73t-161.5 -73t-55.5 -272z" />
<glyph unicode="&#xf5;" d="M119 502q0 104 6 175t29.5 148.5t64.5 123.5t115 76t178 30t178 -30t115 -76t64.5 -123.5t29.5 -148.5t6 -175q0 -166 -28.5 -273.5t-87 -160t-122 -70.5t-155.5 -18t-155.5 18t-122 70.5t-87 160t-28.5 273.5zM164 1184q10 100 63.5 160.5t149.5 60.5q59 0 153 -37 q90 -39 121 -39q96 0 105 92h104q-10 -92 -63 -155q-57 -68 -150 -68q-39 0 -147 39q-98 39 -148 39q-35 0 -62.5 -28.5t-31.5 -63.5h-94zM295 573q0 -258 45 -357t172 -99t172 99t45 357q0 199 -55.5 272t-161.5 73t-161.5 -73t-55.5 -272z" />
<glyph unicode="&#xf6;" d="M119 502q0 104 6 175t29.5 148.5t64.5 123.5t115 76t178 30t178 -30t115 -76t64.5 -123.5t29.5 -148.5t6 -175q0 -166 -28.5 -273.5t-87 -160t-122 -70.5t-155.5 -18t-155.5 18t-122 70.5t-87 160t-28.5 273.5zM236 1208v213h192v-213h-192zM295 573q0 -258 45 -357 t172 -99t172 99t45 357q0 199 -55.5 272t-161.5 73t-161.5 -73t-55.5 -272zM596 1208v213h192v-213h-192z" />
<glyph unicode="&#xf7;" d="M88 455v127h848v-127h-848zM416 0v213h192v-213h-192zM416 823v213h192v-213h-192z" />
<glyph unicode="&#xf8;" d="M74 -27l114 160q-70 127 -69 369q0 104 6 175t29.5 148.5t64.5 123.5t115 76t178 30q180 0 274 -88l99 137l65 -41l-114 -160q70 -117 69 -401q0 -166 -28.5 -273.5t-87 -160t-122 -70.5t-155.5 -18q-190 0 -276 88l-99 -140zM295 573q0 -172 18 -266l371 518 q-49 92 -172 93q-106 0 -161.5 -73t-55.5 -272zM342 213q47 -96 170 -96q127 0 172 99t45 357q0 104 -14 162z" />
<glyph unicode="&#xf9;" d="M154 246v788h168v-717q0 -96 45 -152t131 -56q78 0 140 60t62 179v686h168v-819q0 -96 11 -215h-179v125h-6q-86 -145 -262 -145q-278 0 -278 266zM268 1479h224l182 -289h-137z" />
<glyph unicode="&#xfa;" d="M154 246v788h168v-717q0 -96 45 -152t131 -56q78 0 140 60t62 179v686h168v-819q0 -96 11 -215h-179v125h-6q-86 -145 -262 -145q-278 0 -278 266zM350 1190l182 289h224l-269 -289h-137z" />
<glyph unicode="&#xfb;" d="M154 246v788h168v-717q0 -96 45 -152t131 -56q78 0 140 60t62 179v686h168v-819q0 -96 11 -215h-179v125h-6q-86 -145 -262 -145q-278 0 -278 266zM213 1190l205 289h188l205 -289h-164l-135 192l-135 -192h-164z" />
<glyph unicode="&#xfc;" d="M154 246v788h168v-717q0 -96 45 -152t131 -56q78 0 140 60t62 179v686h168v-819q0 -96 11 -215h-179v125h-6q-86 -145 -262 -145q-278 0 -278 266zM236 1208v213h192v-213h-192zM596 1208v213h192v-213h-192z" />
<glyph unicode="&#xfd;" horiz-adv-x="909" d="M16 1034h195l248 -841h4l248 841h182l-469 -1425h-174l117 391zM293 1190l182 289h223l-268 -289h-137z" />
<glyph unicode="&#xfe;" d="M162 -391v1870h168v-568h4q86 143 229 144q70 0 124 -18.5t90 -45t60.5 -75t38 -89.5t20.5 -105.5t8 -108.5t1 -113q0 -164 -27.5 -272.5t-78.5 -160t-103.5 -69.5t-124.5 -18q-147 0 -235 124h-6v-495h-168zM330 559q0 -209 16 -280q39 -162 172 -162q43 0 78 14 t56.5 33.5t37 54.5t23.5 62.5t11 73.5t4 72t1 71q0 227 -39 323.5t-166 96.5q-45 0 -78.5 -16.5t-54 -47.5t-34 -63.5t-18.5 -78.5t-7 -78t-2 -75z" />
<glyph unicode="&#xff;" horiz-adv-x="909" d="M16 1034h195l248 -841h4l248 841h182l-469 -1425h-174l117 391zM178 1208v213h193v-213h-193zM539 1208v213h192v-213h-192z" />
<glyph unicode="&#x152;" horiz-adv-x="1705" d="M147 551v344q0 313 114 448.5t343 135.5h1020v-164h-573v-475h532v-164h-532v-512h585v-164h-977q-270 0 -391 127t-121 424zM340 559q0 -195 57.5 -295t210.5 -100h254v1151h-270q-88 0 -140.5 -32t-82 -128t-29.5 -268v-328z" />
<glyph unicode="&#x153;" horiz-adv-x="1593" d="M119 502q0 104 6 175t29.5 148.5t64.5 123.5t115 76t178 30q111 0 195 -40t100 -132h4q68 172 301 172q213 0 291 -118t78 -386v-88h-582q0 -203 50 -274.5t159 -71.5q82 0 129 56t51 140h185q-2 -168 -97.5 -250.5t-263.5 -82.5q-252 0 -313 163q-47 -92 -117 -127.5 t-170 -35.5q-92 0 -155.5 18t-122 70.5t-87 160t-28.5 273.5zM295 573q0 -258 45 -357t172 -99t172 99t45 357q0 199 -55.5 272t-161.5 73t-161.5 -73t-55.5 -272zM899 590h404q0 109 -14.5 177.5t-45.5 100t-62.5 41t-84.5 9.5q-94 0 -144.5 -65.5t-52.5 -262.5z" />
<glyph unicode="&#x178;" d="M16 1479h211l289 -715l299 715h191l-404 -916v-563h-188v563zM236 1653v213h192v-213h-192zM596 1653v213h192v-213h-192z" />
<glyph unicode="&#x2c6;" horiz-adv-x="569" d="M-14 1190l204 289h189l205 -289h-164l-135 192l-135 -192h-164z" />
<glyph unicode="&#x2dc;" horiz-adv-x="569" d="M-63 1184q10 100 63 160.5t150 60.5q59 0 153 -37q90 -39 121 -39q96 0 104 92h105q-10 -92 -64 -155q-57 -68 -149 -68q-39 0 -148 39q-96 39 -147 39q-35 0 -62.5 -28.5t-31.5 -63.5h-94z" />
<glyph unicode="&#x2000;" horiz-adv-x="1011" />
<glyph unicode="&#x2001;" horiz-adv-x="2025" />
<glyph unicode="&#x2002;" horiz-adv-x="1011" />
<glyph unicode="&#x2003;" horiz-adv-x="2025" />
<glyph unicode="&#x2004;" horiz-adv-x="673" />
<glyph unicode="&#x2005;" horiz-adv-x="505" />
<glyph unicode="&#x2006;" horiz-adv-x="335" />
<glyph unicode="&#x2007;" horiz-adv-x="335" />
<glyph unicode="&#x2008;" horiz-adv-x="251" />
<glyph unicode="&#x2009;" horiz-adv-x="403" />
<glyph unicode="&#x200a;" horiz-adv-x="110" />
<glyph unicode="&#x2010;" horiz-adv-x="681" d="M115 479v158h450v-158h-450z" />
<glyph unicode="&#x2011;" horiz-adv-x="681" d="M115 479v158h450v-158h-450z" />
<glyph unicode="&#x2012;" horiz-adv-x="681" d="M115 479v158h450v-158h-450z" />
<glyph unicode="&#x2013;" d="M0 498v114h1024v-114h-1024z" />
<glyph unicode="&#x2014;" horiz-adv-x="2048" d="M0 498v114h2048v-114h-2048z" />
<glyph unicode="&#x2018;" horiz-adv-x="454" d="M72 1071l168 408h141l-88 -408h-221z" />
<glyph unicode="&#x2019;" horiz-adv-x="454" d="M72 1071l88 408h221l-168 -408h-141z" />
<glyph unicode="&#x201a;" horiz-adv-x="454" d="M72 -227l88 407h221l-168 -407h-141z" />
<glyph unicode="&#x201c;" horiz-adv-x="909" d="M129 1069l168 408h141l-88 -408h-221zM471 1069l168 408h141l-88 -408h-221z" />
<glyph unicode="&#x201d;" horiz-adv-x="909" d="M129 1071l88 408h221l-168 -408h-141zM471 1071l88 408h221l-168 -408h-141z" />
<glyph unicode="&#x201e;" horiz-adv-x="909" d="M129 -227l88 407h221l-168 -407h-141zM471 -227l88 407h221l-168 -407h-141z" />
<glyph unicode="&#x2022;" horiz-adv-x="681" d="M27 739q0 129 93 222.5t220 93.5q129 0 222 -93.5t93 -222.5q0 -127 -93 -220t-222 -93q-127 0 -220 93t-93 220z" />
<glyph unicode="&#x2026;" horiz-adv-x="2048" d="M246 0v213h192v-213h-192zM928 0v213h192v-213h-192zM1610 0v213h192v-213h-192z" />
<glyph unicode="&#x202f;" horiz-adv-x="403" />
<glyph unicode="&#x2039;" horiz-adv-x="454" d="M49 553l191 401h155l-162 -401l160 -395h-160z" />
<glyph unicode="&#x203a;" horiz-adv-x="454" d="M59 954h156l191 -401l-185 -395h-160l160 395z" />
<glyph unicode="&#x205f;" horiz-adv-x="505" />
<glyph unicode="&#x20ac;" horiz-adv-x="909" d="M14 506l23 137h94v135h-117l23 137h98v101q0 438 373 438q172 0 265 -92t93 -279h-182q0 205 -176 205q-182 0 -182 -252v-121h327l-22 -137h-307v-135h282l-22 -137h-258v-121q0 -131 46 -195.5t146 -64.5q92 0 132 48t40 159h178q0 -369 -360 -369q-375 0 -375 420v123 h-119z" />
<glyph unicode="&#x2122;" horiz-adv-x="1689" d="M-6 1364v115h631v-115h-244v-772h-143v772h-244zM727 592v887h227l222 -660h4l215 660h223v-887h-143v698h-5l-245 -698h-117l-234 698h-4v-698h-143z" />
<glyph unicode="&#xe000;" horiz-adv-x="1035" d="M0 1035h1035v-1035h-1035v1035z" />
<glyph unicode="&#xfb01;" d="M18 907v127h160v201q0 250 297 250q43 0 80 -6v-121q-121 8 -165 -32t-44 -116v-176h209v-127h-209v-907h-168v907h-160zM688 1298v181h189v-181h-189zM698 0v1034h168v-1034h-168z" />
<glyph unicode="&#xfb02;" d="M18 907v127h160v201q0 250 297 250q43 0 80 -6v-121q-121 8 -165 -32t-44 -116v-176h209v-127h-209v-907h-168v907h-160zM713 0v1479h168v-1479h-168z" />
<glyph unicode="&#xfb03;" horiz-adv-x="1593" d="M1272 1298v181h189v-181h-189zM1282 0v1034h168v-1034h-168zM587 907v127h160v201q0 250 297 250q43 0 80 -6v-121q-21 1 -39 1q-89 0 -126 -33q-44 -40 -44 -116v-176h209v-127h-209v-907h-168v907h-160zM18 907v127h160v201q0 250 297 250q43 0 80 -6v-121q-21 1 -39 1 q-89 0 -126 -33q-44 -40 -44 -116v-176h209v-127h-209v-907h-168v907h-160z" />
<glyph unicode="&#xfb04;" horiz-adv-x="1593" d="M1282 0v1479h168v-1479h-168zM587 907v127h160v201q0 250 297 250q43 0 80 -6v-121q-21 1 -39 1q-89 0 -126 -33q-44 -40 -44 -116v-176h209v-127h-209v-907h-168v907h-160zM18 907v127h160v201q0 250 297 250q43 0 80 -6v-121q-21 1 -39 1q-89 0 -126 -33 q-44 -40 -44 -116v-176h209v-127h-209v-907h-168v907h-160z" />
</font>
</defs>
</svg>
